Traffik.2018.1080p.BluRay.x264 English

Goto down

Traffik.2018.1080p.BluRay.x264 English

Příspěvek pro rakosnicek za Mon Jul 09, 2018 3:46 pm

Traffik.2018



Plot
A couple off for a romantic weekend in the mountains are accosted by a biker gang. Alone in the mountains| Brea and John must defend themselves against the gang| who will stop at nothing to protect their secrets.
Genres
Thriller
Actors
Missi Pyle , Paula Patton , William Fichtner , Luke Goss , Roselyn Sanchez , Dawn Olivieri , Omar Epps , Laz Alonso , Claude Duhamel , Stacey Arwen Raab , Lorin McCraley , Scott Anthony Leet , William W. Barbour , September D'Angelo , Lisa Hitchcock Kallstrom



Download here


M
Media info:
General
Complete name                            : G:\Stahování\Traffik.2018.1080p.BluRay.H264.AAC-RARBG\Traffik.2018.1080p.BluRay.mp4
Format                                   : MPEG-4
Format profile                           : Base Media
Codec ID                                 : isom
File size                                : 1.85 GiB
Duration                                 : 1h 36mn
Overall bit rate                         : 2 729 Kbps
Movie name                               : Traffik.2018.1080p.BluRay.H264.AAC-RARBG
Encoded date                             : UTC 2018-07-09 00:22:08
Tagged date                              : UTC 2018-07-09 00:22:08
Writing application                      : Lavf57.83.100
Comment                                  : Traffik.2018.1080p.BluRay.H264.AAC-RARBG

Video
ID                                       : 1
Format                                   : AVC
Format/Info                              : Advanced Video Codec
Format profile                           : High@L4.1
Format settings, CABAC                   : Yes
Format settings, ReFrames                : 4 frames
Codec ID                                 : avc1
Codec ID/Info                            : Advanced Video Coding
Duration                                 : 1h 36mn
Bit rate                                 : 2 500 Kbps
Width                                    : 1 920 pixels
Height                                   : 800 pixels
Display aspect ratio                     : 2.40:1
Frame rate mode                          : Constant
Frame rate                               : 23.976 fps
Color space                              : YUV
Chroma subsampling                       : 4:2:0
Bit depth                                : 8 bits
Scan type                                : Progressive
Bits/(Pixel*Frame)                       : 0.068
Stream size                              : 1.69 GiB (92%)
Writing library                          : x264 core 152 r2851M ba24899
Encoding settings                        : cabac=1 / ref=4 / deblock=1👎-1 / analyse=0x3:0x113 / me=umh / subme=9 / psy=1 / psy_rd=1.00:0.15 / mixed_ref=1 / me_range=24 / chroma_me=1 / trellis=2 / 8x8dct=1 / cqm=0 / deadzone=21,11 / fast_pskip=1 / chroma_qp_offset=-3 / threads=32 / lookahead_threads=4 / sliced_threads=0 / nr=0 / decimate=1 / interlaced=0 / bluray_compat=0 / constrained_intra=0 / bframes=3 / b_pyramid=2 / b_adapt=2 / b_bias=0 / direct=3 / weightb=1 / open_gop=0 / weightp=2 / keyint=250 / keyint_min=25 / scenecut=40 / intra_refresh=0 / rc_lookahead=50 / rc=2pass / mbtree=1 / bitrate=2500 / ratetol=1.0 / qcomp=0.60 / qpmin=0 / qpmax=69 / qpstep=4 / cplxblur=20.0 / qblur=0.5 / vbv_maxrate=31250 / vbv_bufsize=31250 / nal_hrd=none / filler=0 / ip_ratio=1.40 / aq=3:1.00
Encoded date                             : UTC 2018-07-09 00:22:08
Tagged date                              : UTC 2018-07-09 00:22:08

Audio
ID                                       : 2
Format                                   : AAC
Format/Info                              : Advanced Audio Codec
Format profile                           : LC
Codec ID                                 : 40
Duration                                 : 1h 36mn
Bit rate mode                            : Constant
Bit rate                                 : 224 Kbps
Channel(s)                               : 2 channels
Channel(s)_Original                      : 6 channels
Channel positions                        : Front: L C R, Side: L R, LFE
Sampling rate                            : 48.0 KHz
Compression mode                         : Lossy
Stream size                              : 155 MiB (8%)
Language                                 : English
Encoded date                             : UTC 2018-07-09 00:22:08
Tagged date                              : UTC 2018-07-09 00:22:08

avatar
rakosnicek
Admin

Posts : 71
Points : 216
Reputation : 0
Join date : 07. 07. 18
Age : 39

http://sporttrackercz.forumotion.eu

Návrat nahoru Goto down

Návrat nahoru


 
Povolení tohoto fóra:
Nemůžete odpovídat na témata v tomto fóru