Johnny English Strikes Again (2018)

Goto down

Johnny English Strikes Again (2018)

Příspěvek pro rakosnicek za Thu Sep 20, 2018 7:19 pm

Johnny English Strikes Again (2018)


Visit my blog







Plot:
JOHNNY ENGLISH STRIKES AGAIN is the third installment of the Johnny English comedy series, with Rowan Atkinson returning as the much loved accidental secret agent. The new adventure begins when a cyber-attack reveals the identity of all active undercover agents in Britain, leaving Johnny English as the Secret Service's last hope. Called out of retirement, English dives head first into action with the mission to find the mastermind hacker. As a man with few skills and analog methods, Johnny English must overcome the challenges of modern technology to make this mission a success.

kód:
General
Complete name                            : G:\Stahování\Johnny.English.Strikes.Again.2018.HDCAM.XviD-AVID[TGx]\Johnny.English.Strikes.Again.2018.avi
Format                                   : AVI
Format/Info                              : Audio Video Interleave
Format profile                           : OpenDML
File size                                : 1.15 GiB
Duration                                 : 1h 23mn
Overall bit rate                         : 1 978 Kbps
Movie name                               : AVID - XviD is back!
Writing application                      : Lavf57.56.101

Video
ID                                       : 0
Format                                   : MPEG-4 Visual
Format profile                           : Advanced Simple@L5
Format settings, BVOP                    : 2
Format settings, QPel                    : Yes
Format settings, GMC                     : No warppoints
Format settings, Matrix                  : Default (H.263)
Muxing mode                              : Packed bitstream
Codec ID                                 : XVID
Codec ID/Hint                            : XviD
Duration                                 : 1h 23mn
Bit rate                                 : 1 834 Kbps
Width                                    : 720 pixels
Height                                   : 320 pixels
Display aspect ratio                     : 2.25:1
Frame rate                               : 29.970 fps
Color space                              : YUV
Chroma subsampling                       : 4:2:0
Bit depth                                : 8 bits
Scan type                                : Progressive
Compression mode                         : Lossy
Bits/(Pixel*Frame)                       : 0.266
Stream size                              : 1.07 GiB (93%)
Writing library                          : XviD 67

Audio
ID                                       : 1
Format                                   : MPEG Audio
Format version                           : Version 1
Format profile                           : Layer 3
Mode                                     : Joint stereo
Mode extension                           : MS Stereo
Codec ID                                 : 55
Codec ID/Hint                            : MP3
Duration                                 : 1h 23mn
Bit rate mode                            : Constant
Bit rate                                 : 128 Kbps
Channel(s)                               : 2 channels
Sampling rate                            : 44.1 KHz
Compression mode                         : Lossy
Stream size                              : 76.5 MiB (6%)
Alignment                                : Aligned on interleaves
Interleave, duration                     : 26 ms (0.78 video frame)
Interleave, preload duration             : 26 ms




avatar
rakosnicek
Admin

Posts : 71
Points : 216
Reputation : 0
Join date : 07. 07. 18
Age : 39

http://sporttrackercz.forumotion.eu

Návrat nahoru Goto down

Návrat nahoru


 
Povolení tohoto fóra:
Nemůžete odpovídat na témata v tomto fóru