RPL 2018-2019 / Matchday 02 / Dinamo (Moscow) – Rubin (Kazan) / Ryzen HD [03.08.2018, 720p 50 fps, H.264, RU, HDTVRip]

Goto down

RPL 2018-2019 / Matchday 02 / Dinamo (Moscow) – Rubin (Kazan) / Ryzen HD [03.08.2018, 720p 50 fps, H.264, RU, HDTVRip]

Příspěvek pro rakosnicek za Sat Aug 04, 2018 7:54 am

RPL 2018-2019 / Matchday 02 / Dinamo (Moscow) – Rubin (Kazan) / Ryzen HD [03.08.2018, 720p 50 fps, H.264, RU, HDTVRip]







kód:
General
Unique ID                                : 169684267877429562008348675498589935348 (0x7FA800528D8838E31CF00EFB0EB5D6F4)
Complete name                            : G:Stahování?????????? ???????-???? 2018-19. 2-? ???. ?????? - ????? HDTVRip 720p rgfootball.net.mkv
Format                                   : Matroska
Format version                           : Version 2
File size                                : 4.69 GiB
Duration                                 : 2h 38mn
Overall bit rate                         : 4 245 Kbps
Writing application                      : Lavf54.63.104
Writing library                          : Lavf54.63.104

Video
ID                                       : 1
Format                                   : AVC
Format/Info                              : Advanced Video Codec
Format profile                           : High@L3.2
Format settings, CABAC                   : Yes
Format settings, ReFrames                : 4 frames
Format settings, GOP                     : M=2, N=15
Codec ID                                 : V_MPEG4/ISO/AVC
Duration                                 : 2h 38mn
Bit rate                                 : 4 032 Kbps
Width                                    : 1 280 pixels
Height                                   : 720 pixels
Display aspect ratio                     : 16:9
Frame rate mode                          : Constant
Frame rate                               : 50.000 fps
Color space                              : YUV
Chroma subsampling                       : 4:2:0
Bit depth                                : 8 bits
Scan type                                : Progressive
Bits/(Pixel*Frame)                       : 0.088
Stream size                              : 4.46 GiB (95%)
Default                                  : No
Forced                                   : No

Audio
ID                                       : 2
Format                                   : AC-3
Format/Info                              : Audio Coding 3
Mode extension                           : CM (complete main)
Format settings, Endianness              : Big
Codec ID                                 : A_AC3
Duration                                 : 2h 38mn
Bit rate mode                            : Constant
Bit rate                                 : 128 Kbps
Channel(s)                               : 2 channels
Channel positions                        : Front: L R
Sampling rate                            : 48.0 KHz
Compression mode                         : Lossy
Stream size                              : 145 MiB (3%)
Language                                 : Russian
Default                                  : Yes
Forced                                   : No


avatar
rakosnicek
Admin

Posts : 71
Points : 216
Reputation : 0
Join date : 07. 07. 18
Age : 39

http://sporttrackercz.forumotion.eu

Návrat nahoru Goto down

Návrat nahoru


 
Povolení tohoto fóra:
Nemůžete odpovídat na témata v tomto fóru