Bumblebee.2018

Goto down

Bumblebee.2018

Příspěvek pro rakosnicek za Sun Dec 16, 2018 4:48 pm

Bumblebee.2018

Please donate here





kód:
General
Unique ID                                : 200747438895894321498917060257433379263 (0x97068CE5E4355BC78F3850489F19E1BF)
Complete name                            : G:\Stahování\Bumblebee.2018.CAM.X264-MrTaco[TGx]\Bumblebee.2018.mkv
Format                                   : Matroska
Format version                           : Version 4 / Version 2
File size                                : 1.29 GiB
Duration                                 : 1h 49mn
Overall bit rate                         : 1 695 Kbps
Movie name                               : Taco
Encoded date                             : UTC 2018-12-16 11:04:30
Writing application                      : mkvmerge v6.7.0 ('Back to the Ground') 64bit built on Jan  8 2014 15:10:52
Writing library                          : libebml v1.3.0 + libmatroska v1.4.1

Video
ID                                       : 1
Format                                   : AVC
Format/Info                              : Advanced Video Codec
Format profile                           : High@L4.1
Format settings, CABAC                   : Yes
Format settings, ReFrames                : 4 frames
Codec ID                                 : V_MPEG4/ISO/AVC
Duration                                 : 1h 49mn
Bit rate                                 : 1 500 Kbps
Width                                    : 720 pixels
Height                                   : 368 pixels
Display aspect ratio                     : 1.957
Frame rate mode                          : Constant
Frame rate                               : 29.970 fps
Color space                              : YUV
Chroma subsampling                       : 4:2:0
Bit depth                                : 8 bits
Scan type                                : Progressive
Bits/(Pixel*Frame)                       : 0.189
Stream size                              : 1.12 GiB (87%)
Writing library                          : x264 core 142 r2479 dd79a61
Encoding settings                        : cabac=1 / ref=1 / deblock=1:0:0 / analyse=0x3:0x113 / me=hex / subme=2 / psy=1 / psy_rd=1.00:0.00 / mixed_ref=0 / me_range=16 / chroma_me=1 / trellis=0 / 8x8dct=1 / cqm=0 / deadzone=21,11 / fast_pskip=1 / chroma_qp_offset=0 / threads=18 / lookahead_threads=2 / sliced_threads=0 / nr=0 / decimate=1 / interlaced=0 / bluray_compat=0 / constrained_intra=0 / bframes=3 / b_pyramid=2 / b_adapt=1 / b_bias=0 / direct=1 / weightb=1 / open_gop=0 / weightp=1 / keyint=300 / keyint_min=30 / scenecut=40 / intra_refresh=0 / rc_lookahead=10 / rc=abr / mbtree=1 / bitrate=1500 / ratetol=1.0 / qcomp=0.60 / qpmin=0 / qpmax=69 / qpstep=4 / vbv_maxrate=62500 / vbv_bufsize=78125 / nal_hrd=none / filler=0 / ip_ratio=1.40 / aq=1:1.00
Default                                  : Yes
Forced                                   : No
Color range                              : Limited
Color primaries                          : BT.601 NTSC
Transfer characteristics                 : BT.709
Matrix coefficients                      : BT.601

Audio
ID                                       : 2
Format                                   : AC-3
Format/Info                              : Audio Coding 3
Mode extension                           : CM (complete main)
Format settings, Endianness              : Big
Codec ID                                 : A_AC3
Duration                                 : 1h 49mn
Bit rate mode                            : Constant
Bit rate                                 : 192 Kbps
Channel(s)                               : 2 channels
Channel positions                        : Front: L R
Sampling rate                            : 48.0 KHz
Compression mode                         : Lossy
Delay relative to video                  : -5ms
Stream size                              : 150 MiB (11%)
Title                                    : Stereo
Default                                  : Yes
Forced                                   : No


kód:
http://fastshare.cz/10943186/bumblebee.2018.mkv

avatar
rakosnicek
Admin

Posts : 87
Points : 264
Reputation : 0
Join date : 07. 07. 18
Age : 39

http://sporttrackercz.forumotion.eu

Návrat nahoru Goto down

Návrat nahoru


 
Povolení tohoto fóra:
Nemůžete odpovídat na témata v tomto fóru